<?xml version="1.0" standalone="no"?>
<!DOCTYPE svg PUBLIC "-//W3C//DTD SVG 1.1//EN" "http://www.w3.org/Graphics/SVG/1.1/DTD/svg11.dtd" >
<!--
2013-9-30: Created.
-->
<svg>
<metadata>
Created by iconfont
</metadata>
<defs>

<font id="iconfont" horiz-adv-x="1024" >
  <font-face
    font-family="iconfont"
    font-weight="500"
    font-stretch="normal"
    units-per-em="1024"
    ascent="896"
    descent="-128"
  />
    <missing-glyph />
    
    <glyph glyph-name="shanchu" unicode="&#59012;" d="M512 896a512 512 0 1 0 0-1024A512 512 0 0 0 512 896zM265.792 636.8l-3.52-3.072c-8.32-8.32-8.32-16.64 0-24.96L487.04 384l-224.768-224.768c-7.168-7.168-8.192-14.272-3.072-21.44l3.072-3.52 3.52-3.072a14.08 14.08 0 0 1 17.92 0l3.52 3.072L512 359.04l224.768-224.768c7.168-7.168 14.272-8.192 21.44-3.072l3.52 3.072c8.32 8.32 8.32 16.64 0 24.96L536.96 384l224.768 224.768c7.168 7.168 8.192 14.272 3.072 21.44l-3.072 3.52-3.52 3.072a14.08 14.08 0 0 1-17.92 0l-3.52-3.072L512 408.96 287.232 633.728c-7.168 7.168-14.272 8.192-21.44 3.072z"  horiz-adv-x="1024" />

    
    <glyph glyph-name="shaixuan" unicode="&#59011;" d="M758.075077 895.684923a55.138462 55.138462 0 0 0 49.624615-30.956308 57.501538 57.501538 0 0 0-6.301538-58.761846L553.590154 477.735385v-535.63077c0-24.812308-15.438769-43.323077-37.179077-52.617846-6.144-3.150769-12.366769-3.150769-18.589539-3.150769a59.076923 59.076923 0 0 0-43.323076 21.661538L271.911385 137.137231V477.735385L11.894154 805.966769A51.987692 51.987692 0 0 0 5.671385 861.656615C14.966154 883.396923 33.555692 892.612923 55.296 895.684923z m-15.438769-64.984615H67.584l266.24-331.303385v-340.598154l158.011077-198.183384v535.630769L742.636308 830.779077z m402.510769-755.554462c18.589538 0 30.956308-12.366769 30.956308-30.956308 0-18.589538-12.366769-30.956308-30.956308-30.956307H705.457231c-18.589538 0-30.956308 12.366769-30.956308 30.956307 0 18.589538 12.366769 30.956308 30.956308 30.956308z m0 241.506462c18.589538 0 30.956308-12.366769 30.956308-30.956308 0-18.589538-12.366769-30.956308-30.956308-30.956308H705.457231c-18.589538 0-30.956308 12.366769-30.956308 30.956308 0 18.589538 12.366769 30.956308 30.956308 30.956308z m0 238.51323c18.589538 0 31.035077-12.445538 31.035077-31.035076 0-18.589538-12.445538-30.956308-31.035077-30.956308H705.536c-18.589538 0-31.035077 12.366769-31.035077 30.956308 0 17.092923 13.942154 30.956308 31.035077 31.035076z"  horiz-adv-x="1181" />

    
    <glyph glyph-name="erweima" unicode="&#59010;" d="M641.9375 805.875h58.21875v-378.22500027H641.9375V805.875zM118.24999973 805.875h378.22500027v-378.22500027H118.24999973V805.875z m58.16250054-58.16249973V485.81250027H438.31250027V747.71250027H176.41250027z m87.29999946-87.30000027h87.30000027v-87.30000027H263.71249973V660.4125zM845.61875 805.875h58.21875v-378.22500027H845.56249973V805.875z m58.21875-465.52499973V-37.875H525.5V340.35000027h378.28124973zM845.56249973 282.18749973H583.77500027v-261.9h261.84374973V282.18749973z m-174.54374946-87.29999946h87.24375v-87.30000027H671.07499973v87.30000027zM176.41250027 340.35000027V-37.875H118.24999973V340.35000027h58.16250054z m203.68125 0V-37.875H321.93124973V340.35000027h58.16250054z"  horiz-adv-x="1024" />

    
    <glyph glyph-name="xinxishouji" unicode="&#59009;" d="M315.63776 161.49504H476.0064l517.01248 447.87712c11.07456 11.07456 19.36384 24.8832 19.36384 41.472 0 16.5888-5.51424 30.39744-13.80864 41.472l-80.15872 91.2384c-22.10816 24.87808-58.0608 24.87808-80.16384 5.50912L315.71968 341.18656v-179.69152h-0.08192z m55.3216 154.80832l500.4288 431.29344h2.77504l80.16384-91.2384v-5.51424l-500.4288-434.0736H370.96448v99.5328zM979.16928 462.81728c-16.5888 0-27.66336-11.07456-27.66336-27.65824v-411.9296H94.43328c-16.5888 0-27.65824 11.07456-27.65824 27.66336V659.13856c0 16.5888 11.07456 27.66336 27.65824 27.66336h414.70976c16.5888 0 27.65824 11.06944 27.65824 27.65824s-11.07456 27.66336-27.65824 27.66336H94.43328c-46.98624 0-82.93888-35.95776-82.93888-82.944v-608.24576c0-46.98624 35.95264-82.944 82.944-82.944h912.34816v467.2512a27.74528 27.74528 0 0 1-27.65824 27.65824l0.04096-0.08192z"  horiz-adv-x="1024" />

    
    <glyph glyph-name="shijian" unicode="&#59008;" d="M847.104427 430.165333H347.435093a41.642667 41.642667 0 0 1-41.6-41.728c0-23.04 18.602667-41.728 41.6-41.728h499.797334c23.04 0 41.6 18.688 41.6 41.728a41.813333 41.813333 0 0 1-41.728 41.728z m0-225.962666H347.435093a41.642667 41.642667 0 0 1-41.6-41.728c0-23.04 18.602667-41.728 41.6-41.728h499.797334c23.04 0 41.6 18.688 41.6 41.728a41.813333 41.813333 0 0 1-41.728 41.728z m251.733333 617.130666H945.067093V854.272a41.642667 41.642667 0 0 1-83.2 0l-0.042666-32.938667H332.672427V854.272a41.642667 41.642667 0 0 1-83.2 0v-32.938667H95.70176A95.786667 95.786667 0 0 1 0.000427 725.333333v-757.248a95.786667 95.786667 0 0 1 95.744-96h1003.178666A95.786667 95.786667 0 0 1 1194.667093-31.872V725.333333a96.085333 96.085333 0 0 1-95.872 96zM95.70176 725.333333h153.813333v-21.589333a41.642667 41.642667 0 0 1 83.2 0L332.843093 725.333333h529.194667v-21.589333a41.642667 41.642667 0 0 1 83.2 0V725.333333h153.856v-130.773333H95.744427V725.333333z m1003.093333-757.248H95.70176V511.573333h1003.178667v-543.445333h-0.128z"  horiz-adv-x="1194" />

    
    <glyph glyph-name="xiazai" unicode="&#59007;" d="M512 213.796571a58.953143 58.953143 0 0 1 43.885714 19.602286l177.225143 196.827429a59.099429 59.099429 0 0 1-87.771428 78.994285L570.953143 426.861714V784.822857a59.026286 59.026286 0 1 1-118.052572 0v-357.961143L378.733714 509.293714a59.099429 59.099429 0 0 1-87.771428-78.994285L468.114286 233.325714c11.190857-12.434286 27.136-19.602286 43.885714-19.602285z m0-253.952h401.554286a59.026286 59.026286 0 0 1 59.099428 59.099429V314.221714a59.026286 59.026286 0 0 1-118.125714 0v-236.251428H169.472v236.251428a59.026286 59.026286 0 0 1-118.125714 0v-295.277714a59.026286 59.026286 0 0 1 59.026285-59.099429h401.700572z"  horiz-adv-x="1024" />

    
    <glyph glyph-name="xiangqing" unicode="&#59006;" d="M512 384m-512 0a512 512 0 1 1 1024 0 512 512 0 1 1-1024 0ZM452.249161 105.280264m-22.627417 22.627417l0 0q-22.627417 22.627417 0 45.254834l236.320743 236.320743q22.627417 22.627417 45.254834 0l0 0q22.627417-22.627417 0-45.254834l-236.320743-236.320743q-22.627417-22.627417-45.254834 0ZM713.731592 366.762695c-11.132689-11.132689-29.144113-11.132689-40.231547-0.045255l-241.389285 241.389284a28.416 28.416 0 0 0 40.276802 40.276803L713.776847 406.994242A28.416 28.416 0 0 0 713.686337 366.71744z"  horiz-adv-x="1024" />

    
    <glyph glyph-name="daifasong" unicode="&#59004;" d="M979.654664 611.680309a38.725379 38.725379 0 0 0-33.740925 19.682206 464.576747 464.576747 0 0 1-200.52845 189.537088 38.725379 38.725379 0 1 0 34.124344 69.590657 541.644086 541.644086 0 0 0 233.885955-221.041398 38.725379 38.725379 0 0 0-33.740924-57.768553z m-940.208759 0a38.725379 38.725379 0 0 0-33.677022 57.768553A541.51628 541.51628 0 0 0 239.654838 890.49026a38.725379 38.725379 0 0 0 34.060441-69.590657 464.576747 464.576747 0 0 1-200.464546-189.537088 38.725379 38.725379 0 0 0-33.804828-19.682206zM509.582236 778.787351a452.371223 452.371223 0 0 1-451.796094-451.796094 452.371223 452.371223 0 0 1 451.796094-451.859997 452.371223 452.371223 0 0 1 451.796094 451.796094 452.371223 452.371223 0 0 1-451.796094 451.859997zM671.768726 399.840981l-156.179583-178.481823a38.597573 38.597573 0 0 0-53.359228-4.728842L350.782619 305.775373a38.725379 38.725379 0 1 0 48.374772 60.45249L481.784315 300.151885l131.768535 150.556096a38.661476 38.661476 0 1 0 58.279779-50.930904z"  horiz-adv-x="1024" />

    
    <glyph glyph-name="dingshi" unicode="&#59003;" d="M512.039074 836.216127c259.48676 0 470.572949-211.086189 470.572949-470.57295S771.525834-104.97241599999995 512.039074-104.97241599999995 41.423481 106.11377400000003 41.423481 365.64317700000004 252.552314 836.173483 512.039074 836.173483z m0-66.524133c-222.8132 0-404.091461-181.235617-404.091461-404.048817s181.235617-404.048817 404.091461-404.048817c222.770556 0 404.048817 181.235617 404.048817 404.048817s-181.235617 404.048817-404.048817 404.048817z m0-104.391715c18.33678 0 33.262066-14.882642 33.262066-33.262066v-263.111473l158.805044-158.805044a33.262066 33.262066 0 0 0-47.078616-47.035973l-168.527803 168.527802a33.262066 33.262066 0 0 0-9.765401 23.539308V632.038213c0 18.379424 14.925286 33.262066 33.262066 33.262066zM256.731394 878.390721a33.262066 33.262066 0 0 0-12.281378-45.415513 543.280415 543.280415 0 0 1-182.685503-171.939297 33.262066 33.262066 0 1 0-55.564708 36.54563A610.145696 610.145696 0 0 0 211.31588 890.629456 33.262066 33.262066 0 0 0 256.731394 878.390721zM812.719624 890.629456a610.145696 610.145696 0 0 0 205.116074-193.090559 33.262066 33.262066 0 0 0-27.761032-51.513559 33.262066 33.262066 0 0 0-27.846319 15.010573 543.323058 543.323058 0 0 1-182.642859 171.939297 33.262066 33.262066 0 1 0 33.134136 57.654248z"  horiz-adv-x="1024" />

    
    <glyph glyph-name="duigou" unicode="&#59002;" d="M1004.352 655.04L421.76 83.392c-13.12-12.8-30.4-19.392-47.68-19.392s-34.56 6.528-47.616 19.392L19.84 384.576a65.088 65.088 0 0 0 0 93.568 67.84 67.84 0 0 0 95.296 0l259.2-254.464 534.72 524.864a67.84 67.84 0 0 0 95.36 0 65.536 65.536 0 0 0 0-93.504z"  horiz-adv-x="1024" />

    
    <glyph glyph-name="jinzhi" unicode="&#59001;" d="M102.4 384c0 94.528 32.512 181.376 86.4 250.752l573.952-573.952A407.232 407.232 0 0 0 512-25.6 410.048 410.048 0 0 0 102.4 384m732.8-250.752L261.248 707.2A407.232 407.232 0 0 0 512 793.6c225.856 0 409.6-183.744 409.6-409.6a407.104 407.104 0 0 0-86.4-250.752M0 384c0-282.304 229.696-512 512-512s512 229.696 512 512-229.696 512-512 512-512-229.696-512-512"  horiz-adv-x="1024" />

    
    <glyph glyph-name="jiantou-copy" unicode="&#59005;" d="M747.328 868.864c28.92800001-33.472 28.928-87.68 0-121.216L433.536 384 747.328 20.351999999999975c28.92800001-33.472 28.928-87.744 0-121.216-28.864-33.472-75.712-33.472-104.576 0l-366.08 424.256c-14.464 16.768-21.696 38.656-21.696 60.608 0 21.952 7.232 43.904 21.696 60.608l366.08 424.32c28.864 33.408 75.712 33.408 104.576 0z"  horiz-adv-x="1024" />

    
    <glyph glyph-name="jiantou" unicode="&#59000;" d="M276.672-100.864c-28.928 33.472-28.928 87.68 0 121.216L590.464 384 276.672 747.648c-28.928 33.472-28.928 87.744 0 121.216 28.864 33.472 75.712 33.472 104.576 0l366.08-424.256c14.464-16.768 21.696-38.656 21.696-60.608 0-21.952-7.232-43.904-21.696-60.608l-366.08-424.32c-28.864-33.408-75.712-33.408-104.576 0z"  horiz-adv-x="1024" />

    
    <glyph glyph-name="bianji" unicode="&#58999;" d="M64 127.744V-64h186.688L736 472.832 549.376 664.512 64 127.744z m821.376 498.368c18.432 18.816 18.432 57.792 0 76.736l-112.064 115.008c-18.56 18.88-56.192 18.88-74.688 0L586.688 702.848l186.624-191.744 112 115.008z m-448.064-613.376L362.688-64H960v76.8H437.312z"  horiz-adv-x="1024" />

    
    <glyph glyph-name="shiyi" unicode="&#58998;" d="M499.136-66.304a462.464 462.464 0 1 0 0 924.992 462.464 462.464 0 0 0 0-924.992z m0 73.152a389.312 389.312 0 1 1 0 778.688 389.312 389.312 0 0 1 0-778.688z m-3.456 128.64a37.952 37.952 0 1 0 0 75.904 37.952 37.952 0 0 0 0-75.904z m-108.8 471.744c28.16 24.832 65.216 37.248 110.784 37.248 48.256 0 87.04-13.312 116.224-39.872 29.184-26.688 43.904-59.264 43.904-97.28 0-21.952-5.184-42.304-15.552-60.928-10.24-18.368-29.696-40.256-58.624-65.856-18.624-16.512-30.784-28.672-36.224-36.16a75.84 75.84 0 0 1-11.84-25.152c-2.624-9.664-4.224-26.048-4.608-48.832v-0.256a35.392 35.392 0 1 0-70.848 0l-0.128 7.68v1.6L459.84 288c0 23.744 3.392 44.48 10.24 61.952 5.056 13.312 13.12 26.688 24.256 40.064 8.064 9.6 22.336 23.424 42.752 41.536 19.712 17.28 32.384 31.04 37.952 40.768a61.44 61.44 0 0 1 8.128 31.104c0 20.672-8.064 38.72-24.384 54.592a82.816 82.816 0 0 1-60.16 23.68c-23.04 0-41.984-7.04-57.28-21.312-15.104-14.144-25.28-36.608-30.272-66.88a37.568 37.568 0 1 0-74.752 7.168c5.568 46.08 22.4 81.664 50.56 106.496z"  horiz-adv-x="1024" />

    
    <glyph glyph-name="tianjia" unicode="&#58997;" d="M546.13333333 433.5616H989.86666667a34.13333333 34.13333333 0 1 0 0-68.26666667H546.13333333V-93.86666666999997a34.13333333 34.13333333 0 1 0-68.26666666 0V365.29493333000005H34.13333333a34.13333333 34.13333333 0 0 0 0 68.26666667h443.73333334V861.86666667a34.13333333 34.13333333 0 0 0 68.26666666 0v-428.30506667z"  horiz-adv-x="1024" />

    
    <glyph glyph-name="chexiao" unicode="&#58992;" d="M486.74133333 224.9728c54.81813333 0 174.8992 0.2048 360.17493334 0.54613333 45.32906667 0 82.05653333-36.72746667 82.05653333-82.1248v-56.9344c0-45.32906667-36.72746667-82.1248-82.1248-82.1248l-175.58186667-0.54613333a39.79946667 39.79946667 0 1 1 0.27306667-79.6672l175.44533333 0.54613333a161.792 161.792 0 0 1 161.65546667 161.792v56.9344c0 89.42933333-72.36266667 161.792-161.792 161.792-178.85866667-0.34133333-296.89173333-0.54613333-354.0992-0.54613333l94.68586667 94.75413333a39.79946667 39.79946667 0 1 1-56.32 56.32l-193.80906667-193.87733333 193.87733333-193.87733334a39.79946667 39.79946667 0 0 1 56.25173334 56.32l-100.62506667 100.69333334z m442.23146667 218.79466666a39.79946667 39.79946667 0 0 1 79.6672 0V736.83626666a161.792 161.792 0 0 1-161.792 161.792H195.92533333C106.496 898.62826666 34.13333333 826.2656 34.13333333 736.83626666v-650.92266666a161.792 161.792 0 0 1 161.792-161.792h198.51946667a39.79946667 39.79946667 0 1 1 0 79.6672H195.92533333a82.1248 82.1248 0 0 0-82.1248 82.1248V736.83626666c0 45.39733333 36.72746667 82.1248 82.1248 82.1248h650.92266667c45.32906667 0 82.1248-36.79573333 82.1248-82.1248v-293.0688z"  horiz-adv-x="1024" />

    
    <glyph glyph-name="yichu" unicode="&#58993;" d="M778.94997333 745.11777185h202.87032889a35.68071111 35.68071111 0 0 0 35.60789333-35.60789333c0-21.33560889-14.27228445-35.60789333-35.6807111-35.60789333h-49.73454223v-697.59431112c0-60.58439111-49.88017778-110.39175111-110.39175111-110.39175111H209.36931555a110.90147555 110.90147555 0 0 0-110.31893333 110.31893333V673.90198519h-60.51157333a35.68071111 35.68071111 0 0 0 0 71.21578666h192.23893333v42.74403556c0 60.43875555 49.80736 110.31893333 110.31893333 110.31893333h327.46154667c60.51157333 0 110.39175111-49.80736 110.39175111-110.31893333v-42.74403556z m-71.21578666 0v42.74403556c0 28.39893333-7.13614222 39.10314667-35.60789334 39.10314666H344.66474667c-28.47175111 0-42.74403555-10.63139555-42.74403556-39.10314666v-42.74403556h405.81347556z m-537.46801778-71.21578666v-701.2352c0-28.39893333 17.76753778-35.53507555 46.23928889-35.53507557h612.25187555c28.47175111 0 32.03982222 17.76753778 32.03982222 49.80736V673.90198519H170.26616889z m177.96664889-583.70730667a35.68071111 35.68071111 0 0 0-35.60789333 35.53507555V492.36726519a35.68071111 35.68071111 0 0 0 71.21578666 0v-366.63751112c0-21.33560889-14.27228445-35.53507555-35.68071111-35.53507555z m177.96664889 0a35.68071111 35.68071111 0 0 0-35.60789334 35.53507555V492.36726519a35.68071111 35.68071111 0 0 0 71.21578667 0v-366.63751112c0-21.33560889-14.27228445-35.53507555-35.68071111-35.53507555z m177.96664888 0a35.68071111 35.68071111 0 0 0-35.60789333 35.53507555V492.36726519a35.68071111 35.68071111 0 0 0 71.21578667 0v-366.63751112c0-21.33560889-14.27228445-35.53507555-35.60789334-35.53507555z"  horiz-adv-x="1024" />

    
    <glyph glyph-name="quanxian" unicode="&#58994;" d="M208.21333333 592.1109333300001C223.57333333 762.91413333 352.8704 897.536 512 897.536s288.42666667-134.48533333 303.78666667-305.3568h107.1104c37.13706667 0 66.9696-30.58346667 66.9696-67.85706667v-543.19786667a67.44746667 67.44746667 0 0 0-66.9696-67.85706666H101.03466667A67.44746667 67.44746667 0 0 0 34.13333333-18.94399999999996V524.2538666600001c0 37.2736 29.83253333 67.85706667 66.9696 67.85706667H208.21333333z m68.608 0h470.35733334C732.50133333 726.4597333300001 632.0128 829.26933333 512 829.26933333c-120.0128 0-220.50133333-102.74133333-235.17866667-237.09013333z m644.77866667-68.26666667H102.4v-542.37866666h819.2V523.84426666zM477.73013333 355.0208a34.13333333 34.13333333 0 0 0 68.26666667 0.06826666l0.2048-149.84533333a34.13333333 34.13333333 0 1 0-68.26666667-0.06826667l-0.2048 149.84533334z"  horiz-adv-x="1024" />

    
    <glyph glyph-name="piliangxiugai" unicode="&#58995;" d="M987.81866667 681.3127111H433.90293333c-17.54453333 0-31.81226667 15.36-31.81226666 34.13333335s14.336 34.13333333 31.81226666 34.13333333h553.91573334c17.47626667 0 31.744-15.36 31.744-34.13333333-0.06826667-18.77333333-14.26773333-34.13333333-31.88053334-34.13333335zM109.9776 609.0183111a30.99306667 30.99306667 0 0 0-22.39146667 9.35253335L9.35253333 696.6727111a31.67573333 31.67573333 0 0 0 0 44.91946668 31.67573333 31.67573333 0 0 0 44.91946667 0l55.63733333-55.63733333 161.3824 163.84a31.67573333 31.67573333 0 0 0 44.91946667 0.34133333c12.56106667-12.288 12.6976-32.29013333 0.34133333-44.91946668L132.57386667 618.37084445a31.40266667 31.40266667 0 0 0-22.528-9.35253335z m877.70453333-262.144H433.9712c-17.54453333 0-31.81226667 15.36-31.81226667 34.13333335 0 18.8416 14.336 34.13333333 31.81226667 34.13333333h553.91573333c17.47626667 0 31.744-15.29173333 31.744-34.13333333-0.06826667-18.8416-14.26773333-34.13333333-31.88053333-34.13333335zM110.04586667 274.71644445000004a30.99306667 30.99306667 0 0 0-22.39146667 9.35253333L9.35253333 362.09777778a31.67573333 31.67573333 0 0 0 0 44.91946667 31.67573333 31.67573333 0 0 0 44.91946667 0l55.63733333-55.63733335 161.3824 163.84a31.67573333 31.67573333 0 0 0 44.91946667 0.34133335c12.56106667-12.288 12.6976-32.3584 0.34133333-44.91946667L132.57386667 284.06897777999995a31.5392 31.5392 0 0 0-22.528-9.4208z m877.70453333-287.1296H433.9712c-17.54453333 0-31.81226667 15.29173333-31.81226667 34.13333333 0 18.77333333 14.336 34.13333333 31.81226667 34.13333332h553.91573333c17.47626667 0 31.744-15.36 31.744-34.13333332-0.06826667-18.90986667-14.26773333-34.13333333-31.88053333-34.13333333z m-877.70453333-72.36266667a30.99306667 30.99306667 0 0 0-22.39146667 9.4208L9.35253333 2.8103111000000354a31.67573333 31.67573333 0 0 0 0 44.91946668 31.67573333 31.67573333 0 0 0 44.91946667 0l55.63733333-55.63733333 161.3824 163.84a31.67573333 31.67573333 0 0 0 44.91946667 0.4096c12.56106667-12.35626667 12.6976-32.3584 0.34133333-44.91946667l-183.97866666-186.7776a31.5392 31.5392 0 0 0-22.528-9.48906668z"  horiz-adv-x="1024" />

    
    <glyph glyph-name="zhongfa" unicode="&#58996;" d="M879.47946667 665.088a604.84266667 604.84266667 0 0 1-38.36586667-5.80266667 590.77973333 590.77973333 0 0 1-178.85866667-62.80533333c-125.1328-69.2224-211.62666667-182.0672-243.78026666-350.68586667l-72.22613334 13.78986667C382.5664 450.38933333 483.05493333 581.3930666599999 626.688 660.7872a663.3472 663.3472 0 0 0 201.04533333 70.79253333c20.95786667 3.8912 39.59466667 6.41706667 55.5008 7.9872L791.68853333 831.31733333 843.63946667 883.2l178.92693333-178.85866667-178.85866667-178.9952-52.0192 51.88266667 87.79093334 87.8592zM860.16 372.56533333000004h73.5232v-309.93066667c0-82.46613333-66.90133333-149.2992-149.36746667-149.2992H183.5008A149.2992 149.2992 0 0 0 34.13333333 62.566400000000044V663.4496c0 82.39786667 66.83306667 149.2992 149.2992 149.2992h317.09866667v-73.5232H183.5008a75.776 75.776 0 0 1-75.776-75.776v-600.8832c0-41.91573333 33.86026667-75.776 75.776-75.776h600.81493333a75.776 75.776 0 0 1 75.776 75.776V372.56533333000004z"  horiz-adv-x="1024" />

    
    <glyph glyph-name="fanhui" unicode="&#58990;" d="M563.83715559-124.48654222000005a41.79740445 41.79740445 0 0 0-28.39893333 10.92266667L26.87886226 357.78560000000004a35.38944 35.38944 0 0 0 0 52.64725333l508.70499555 471.42229334c15.65582222 14.56355555 41.06922667 14.56355555 56.79786667 0 15.58300445-14.56355555 15.58300445-38.15651555 0-52.64725334L111.9300267 384.21845333l480.23324444-445.13507555c15.65582222-14.56355555 15.65582222-38.15651555 0-52.64725333-7.79150222-7.28177778-18.20444445-10.92266667-28.39893333-10.92266667z"  horiz-adv-x="1024" />

    
    <glyph glyph-name="geshuisuanxin1" unicode="&#58991;" d="M837.312 832c20.544 0 37.376-14.4 37.376-32v-832c0-17.6-16.832-32-37.376-32h-672c-20.48 0-37.312 14.4-37.312 32v832c0 17.6 16.832 32 37.312 32h672z m-560-768H352v64H277.312v-64z m0 160H352v64H277.312v-64z m0 160H352V448H277.312v-64z m186.688-320h74.688v64H464v-64z m0 160h74.688v64H464v-64z m0 160h74.688V448H464v-64z m186.688-320h74.624v64h-74.624v-64z m0 160h74.624v64h-74.624v-64z m0 160h74.624V448h-74.624v-64zM277.312 576h448V704h-448v-128z"  horiz-adv-x="1024" />

    
    <glyph glyph-name="gongzitiao" unicode="&#58987;" d="M896 214.08H128V756.48c0 35.84 29.184 64.832 64.832 64.832h638.336c35.84 0 64.832-28.416 64.832-64.832v-542.4z m0-71.168v-110.592c0-35.84-29.184-64.896-64.832-64.896H192.832c-35.84 0-64.832 28.416-64.832 64.896v110.592h768z m-242.944 517.12h-52.928l-67.392-138.24a281.472 281.472 0 0 1-13.12-30.912h-1.024a471.36 471.36 0 0 1-12.672 29.632l-67.136 139.52h-56.448l96-179.072H399.808v-39.488h93.184v-54.976H399.808v-39.68h93.184v-79.04h49.408V346.752h90.368V386.56H542.4v54.976h90.368v39.488H555.84l97.216 179.072z"  horiz-adv-x="1024" />

    
    <glyph glyph-name="yewukanban" unicode="&#58988;" d="M871.36 48.832h-24.192V336.32a47.936 47.936 0 0 1-48.32 48.128h-95.04a48 48 0 0 1-48.384-48.128v-287.488h-48V719.744A48.256 48.256 0 0 1 559.168 768H464a48.064 48.064 0 0 1-48.384-48.256v-670.912h-48V528.448a48 48 0 0 1-48.32 47.744H224.32a47.808 47.808 0 0 1-48.384-47.744v-479.616h-24.128a24 24 0 0 1 0-48h719.488a24 24 0 0 1 0.064 48z"  horiz-adv-x="1024" />

    
    <glyph glyph-name="shezhi" unicode="&#58989;" d="M640 384c0 35.328-12.544 65.472-37.504 90.432A123.328 123.328 0 0 1 512 512c-35.328 0-65.536-12.48-90.496-37.504C396.544 449.472 384 419.328 384 384c0-35.392 12.48-65.536 37.504-90.496 24.96-24.96 55.168-37.504 90.496-37.504 35.328 0 65.472 12.48 90.496 37.504 24.96 24.96 37.504 55.104 37.504 90.496z m256-56.512c0-4.032-1.28-7.872-4.032-11.52a15.168 15.168 0 0 0-9.984-6.528l-92.48-13.952a320.64 320.64 0 0 0-19.52-45.504c11.648-16.64 29.504-39.68 53.504-68.992a19.264 19.264 0 0 0 5.056-12.48 16.704 16.704 0 0 0-4.48-11.52c-9.024-12.352-25.6-30.336-49.536-54.016-24.064-23.68-39.68-35.52-47.04-35.52a24.384 24.384 0 0 0-12.992 4.48l-68.992 54.08c-14.72-7.68-29.824-14.08-45.504-19.008-5.312-45.376-10.176-76.352-14.528-92.992-2.304-9.344-8.32-14.016-17.984-14.016H456.512a18.944 18.944 0 0 0-12.288 4.224 14.72 14.72 0 0 0-5.76 10.752l-13.952 92.032a309.504 309.504 0 0 0-45.056 18.56l-70.464-53.568a17.984 17.984 0 0 0-12.48-4.48 17.216 17.216 0 0 0-12.544 5.504c-41.984 37.952-69.44 65.92-82.432 83.968a19.584 19.584 0 0 0 0.448 23.04c5.056 6.976 13.504 18.048 25.536 33.28 12.032 15.104 20.992 26.88 27.008 35.2a247.616 247.616 0 0 0-20.48 49.536l-91.52 13.44a15.808 15.808 0 0 0-10.496 6.272A18.88 18.88 0 0 0 128 329.536V440.512c0 3.968 1.28 7.808 4.032 11.52a14.976 14.976 0 0 0 9.472 6.464l92.992 14.016c4.672 15.36 11.136 30.656 19.456 46.016a1128.96 1128.96 0 0 1-53.504 68.992 18.752 18.752 0 0 0-4.992 11.968c0 3.328 1.472 7.168 4.48 11.52 8.704 12.032 25.088 29.952 49.28 53.76 24.192 23.808 39.936 35.776 47.296 35.776 4.288 0 8.64-1.664 12.992-5.056l68.992-53.504c14.656 7.68 29.824 14.08 45.44 19.008 5.376 45.376 10.24 76.352 14.528 92.992 2.368 9.344 8.32 14.016 18.048 14.016h110.976c4.672 0 8.768-1.408 12.288-4.224a14.72 14.72 0 0 0 5.76-10.752l13.952-92.032c16.32-5.312 31.36-11.52 44.992-18.56l71.04 53.568a16.256 16.256 0 0 0 11.968 4.48c4.352 0 8.512-1.664 12.544-4.992 43.008-39.68 70.464-68.032 82.432-84.992a16.128 16.128 0 0 0 3.52-11.008c0-4.032-1.28-7.872-3.968-11.52-5.056-7.04-13.504-18.112-25.536-33.28-12.032-15.168-20.992-26.88-27.008-35.2 8.704-16.64 15.488-33.024 20.48-49.024l91.52-14.016c4.352-0.64 7.872-2.752 10.496-6.208A18.88 18.88 0 0 0 896 438.4v-110.976z"  horiz-adv-x="1024" />

    
    <glyph glyph-name="guanbi" unicode="&#58984;" d="M941.920923 859.175757m22.627417-22.627417l0 0q22.627417-22.627417 0-45.254834l-859.841846-859.841846q-22.627417-22.627417-45.254834 0l0 0q-22.627417 22.627417 0 45.254834l859.841846 859.841846q22.627417 22.627417 45.254834 0ZM82.097101 859.183223m-22.627417-22.627417l0 0q-22.627417-22.627417 0-45.254834l859.841846-859.841846q22.627417-22.627417 45.254834 0l0 0q22.627417 22.627417 0 45.254834l-859.841846 859.841846q-22.627417 22.627417-45.254834 0Z"  horiz-adv-x="1024" />

    
    <glyph glyph-name="huaban" unicode="&#58983;" d="M511.552 863.872c-263.296 0-478.72-215.424-478.72-478.72 0-263.232 215.424-478.656 478.72-478.656 263.296 0 478.72 215.424 478.72 478.72 0 263.232-215.424 478.656-478.72 478.656m0-861.632c-210.56 0-382.976 172.352-382.976 382.976 0 210.56 172.352 382.912 382.976 382.912s382.976-172.352 382.976-382.912c0-210.624-172.352-382.976-382.976-382.976m0 622.272c-28.736 0-47.872-19.136-47.872-47.872V385.28c0-28.8 19.2-47.872 47.872-47.872 28.736 0 47.872 19.136 47.872 47.872V576.64c0 28.8-19.2 47.872-47.872 47.872m0-382.912c-28.736 0-47.872-19.2-47.872-47.872 0-28.736 19.2-47.872 47.872-47.872 28.736 0 47.872 19.136 47.872 47.872s-19.2 47.872-47.872 47.872"  horiz-adv-x="1024" />

    
    <glyph glyph-name="tishi" unicode="&#58981;" d="M511.552-95.872c-263.296 0-478.72 215.424-478.72 478.72C32.896 646.016 248.32 861.44 511.616 861.44c263.296 0 478.72-215.424 478.72-478.72 0-263.232-215.424-478.656-478.72-478.656m0 861.632c-210.56 0-382.976-172.352-382.976-382.976 0-210.56 172.352-382.912 382.976-382.912s382.976 172.352 382.976 382.912c0 210.624-172.352 382.976-382.976 382.976m0-622.272c-28.736 0-47.872 19.136-47.872 47.872V382.72c0 28.8 19.2 47.872 47.872 47.872 28.736 0 47.872-19.136 47.872-47.872v-191.424c0-28.8-19.2-47.872-47.872-47.872m0 382.912c-28.736 0-47.872 19.2-47.872 47.872 0 28.736 19.2 47.872 47.872 47.872 28.736 0 47.872-19.136 47.872-47.872s-19.2-47.872-47.872-47.872"  horiz-adv-x="1024" />

    
    <glyph glyph-name="queren" unicode="&#58982;" d="M511.04 863.872c-263.232 0-478.72-215.424-478.72-478.72 0-263.232 215.488-478.656 478.72-478.656 263.296 0 478.72 215.424 478.72 478.72 0 263.232-215.424 478.656-478.72 478.656m0-861.632c-210.56 0-382.912 172.352-382.912 382.976 0 210.56 172.288 382.912 382.912 382.912 210.624 0 382.976-172.352 382.976-382.912 0-210.624-172.352-382.976-382.976-382.976m110.08 512.192L463.232 356.48l-62.208 62.208c-19.2 19.2-47.872 19.2-67.008 0-19.2-19.2-19.2-47.872 0-67.008l95.744-95.744c9.6-9.6 23.936-14.336 33.472-14.336 9.6 0 23.936 4.736 33.536 14.336l191.488 191.488c19.136 19.136 19.136 47.872 0 67.008-19.2 19.2-47.872 19.2-67.008 0"  horiz-adv-x="1024" />

    
    <glyph glyph-name="gengduo" unicode="&#58980;" d="M704 384a96 96 0 1 0 192 0 96 96 0 1 0-192 0zM128 384a96 96 0 1 0 192 0 96 96 0 1 0-192 0z m288 0a96 96 0 1 0 192 0 96 96 0 1 0-192 0z"  horiz-adv-x="1024" />

    
    <glyph glyph-name="xiaochengxu" unicode="&#58978;" d="M387.640889 130.730667c-82.147556 0-149.048889 61.838222-149.048889 138.296889 0 23.779556 6.883556 47.104 19.342222 67.982222A147.911111 147.911111 0 0 0 343.04 401.066667c9.614222 2.844444 17.066667 3.982222 23.779556 3.982222 15.872 0 28.330667-12.401778 28.330666-28.330667 0-15.872-12.515556-28.330667-28.330666-28.330666-1.137778 0-3.413333 0-6.257778-1.137778-24.405333-6.826667-43.690667-21.048889-54.442667-39.651556-7.395556-11.889778-10.752-24.917333-10.752-38.513778 0-44.771556 41.358222-81.578667 91.875556-81.578666 17.635556 0 34.645333 4.551111 49.948444 13.027555 26.624 15.303111 42.496 40.789333 42.496 68.551111V506.652444c0 48.184889 26.680889 92.330667 70.883556 117.361778 23.779556 13.596444 50.403556 20.48 77.710222 20.48 82.204444 0 149.048889-61.838222 149.048889-138.296889 0-23.779556-6.826667-47.104-19.342222-68.039111a147.911111 147.911111 0 0 0-84.992-64 85.333333 85.333333 0 0 0-23.779556-3.982222 28.046222 28.046222 0 0 0-28.330667 28.330667c0 15.928889 12.401778 28.330667 28.330667 28.330666 1.137778 0 3.413333 0 6.257778 1.137778 24.348444 7.338667 43.690667 21.617778 54.385778 39.708445 7.338667 11.832889 10.808889 24.860444 10.808888 38.513777 0 44.771556-41.415111 81.578667-92.387555 81.578667-17.635556 0-34.645333-4.551111-49.948445-13.084444-26.624-15.246222-42.496-40.732444-42.496-68.494223v-236.942222c0-48.241778-26.624-92.444444-70.883555-117.361778-23.438222-14.279111-50.062222-21.162667-77.255111-21.162666z m122.993778-243.825778a497.095111 497.095111 0 1 0 0 994.190222 497.095111 497.095111 0 0 0 0-994.190222z m0 56.888889a440.206222 440.206222 0 1 1 0 880.412444 440.206222 440.206222 0 0 1 0-880.412444z"  horiz-adv-x="1024" />

    
    <glyph glyph-name="gongzibiaodangan" unicode="&#58977;" d="M643.413333 598.072889H346.453333a36.636444 36.636444 0 0 0-37.262222 36.408889c0 20.309333 16.497778 36.408889 37.262222 36.408889h296.96c20.821333 0 37.319111-16.099556 37.319111-36.408889 0-20.252444-17.066667-36.408889-37.262222-36.408889z m92.672-679.253333c-17.066667 0-32.483556 6.257778-44.202666 18.204444l-166.115556 164.352a155.989333 155.989333 0 0 0-45.169778 132.096c6.371556 48.924444 35.612444 91.022222 79.303111 116.053333 54.784 31.175111 124.586667 25.429333 176.184889-13.084444 51.598222 38.513778 121.344 44.259556 176.184889 13.084444a158.378667 158.378667 0 0 0 79.303111-116.053333c6.371556-48.924444-9.557333-97.28-45.226666-132.096l-166.115556-164.408889c-11.662222-11.377778-27.136-18.204444-44.145778-18.204444z m-157.013333 378.709333c-32.483556-18.659556-40.732444-46.648889-42.666667-62.122667-3.811556-26.737778 5.12-52.224 24.177778-70.883555l175.502222-185.287111 175.502223 185.287111c19.114667 18.659556 27.306667 44.145778 24.177777 70.883555a82.375111 82.375111 0 0 1-42.609777 62.122667c-31.175111 18.033778-74.410667 10.524444-102.968889-17.408l-15.928889-15.530667a54.044444 54.044444 0 0 0-38.172445-15.530666 55.125333 55.125333 0 0 0-38.115555 15.530666l-15.928889 15.530667a91.192889 91.192889 0 0 1-64.853333 27.306667c-13.368889 0-26.737778-3.072-38.115556-9.898667z m-2.673778-363.235556a28.444444 28.444444 0 1 0 0-56.888889H199.111111a142.222222 142.222222 0 0 0-142.222222 142.222223v682.666666A142.222222 142.222222 0 0 0 199.111111 844.515556h568.888889a142.222222 142.222222 0 0 0 142.222222-142.222223v-290.645333a28.444444 28.444444 0 1 0-56.888889 0V702.293333a85.333333 85.333333 0 0 1-85.333333 85.333334H199.111111a85.333333 85.333333 0 0 1-85.333333-85.333334v-682.666666a85.333333 85.333333 0 0 1 85.333333-85.333334h377.287111z"  horiz-adv-x="1024" />

    
    <glyph glyph-name="shouquan-" unicode="&#58976;" d="M767.488 144.64c-71.232 98.816-189.44 156.736-311.168 158.4-212.096 0-385.984-170.368-385.984-378.24a34.56 34.56 0 0 0-34.752-34.048 34.56 34.56 0 0 0-34.816 34.048c0 192.576 125.184 356.096 300.8 419.2-88.64 51.072-149.504 146.496-149.504 255.552C152.064 763.072 287.68 896 454.592 896s304.256-132.928 300.8-298.176a292.48 292.48 0 0 0-149.568-255.552 450.176 450.176 0 0 0 215.616-158.464c12.16-13.632 8.64-35.84-7.04-46.016a32.448 32.448 0 0 0-46.912 6.848zM219.84 599.552c0-127.808 106.048-230.016 234.752-230.016 128.64 0 234.688 103.936 234.688 230.016 0 126.08-106.048 230.016-234.688 230.016S219.84 725.632 219.84 599.552z m789.312-403.84a32.512 32.512 0 0 0 0-47.68l-274.688-265.792a34.688 34.688 0 0 0-24.32-10.24 34.688 34.688 0 0 0-24.32 10.24l-194.752 187.392a32.512 32.512 0 0 0 0 47.744 34.112 34.112 0 0 0 48.64 0l170.432-163.584 250.368 241.92a34.112 34.112 0 0 0 48.64 0z"  horiz-adv-x="1024" />

    
    <glyph glyph-name="sousuomoren" unicode="&#58975;" d="M429.568 120.246857c-173.202286 0-314.075429 147.017143-314.075429 327.606857 0 180.662857 140.873143 327.68 314.075429 327.68 173.275429 0 314.075429-147.017143 314.075429-327.68 0-180.662857-140.8-327.68-314.075429-327.68z m368.859429 99.108572a459.337143 459.337143 0 0 1 60.708571 228.498285C859.136 695.003429 666.477714 896 429.568 896 192.731429 896 0 695.003429 0 447.853714c0-247.076571 192.731429-448.073143 429.568-448.073143 115.273143 0 219.867429 47.835429 297.106286 125.220572l276.114285-235.739429 73.142858 93.184-277.504 236.982857z"  horiz-adv-x="1097" />

    


  </font>
</defs>
</svg>
